Play video .ts via Home Server

Hello. Doesn’t play video which media  server codes from iptv (stream). When this file on a usb flash, normally plays (already ready file, the stream isn’t present). Tell please, so has to be?

.TS ?? it’s a mpeg2 ?? mpeg2 it’s not supported… i thinks mpeg2-TS it’s not supported but only mpeg-ps it’s supported.

Only mpeg4 is supported.

But this video play, when I connect through usb.

Try renaming it to .mpeg?

foetus wrote:

Only mpeg4 is supported.

not true… i have try a MPEG2-PS file (in vob format) and it’s worked whitout problems.

It’s a VOB created by a DVD-R stand alone registrator and all vob file it’s a Mpeg-PS… it’s been supported.

This is mediainfo i have played on my WD TV Play:

General
Complete name : E:\DVD Decrypter Rip\VTS_01_1.VOB
Format : MPEG-PS
File size : 988 MiB
Duration : 44mn 31s
Overall bit rate : 3 104 Kbps

Video
ID : 224 (0xE0)
Format : MPEG Video
Format version : Version 2
Format profile : Main@Main
Format settings, BVOP : Yes
Format settings, Matrix : Custom
Format settings, GOP : M=3, N=12
Duration : 44mn 31s
Bit rate : 2 760 Kbps
Width : 720 pixels
Height : 576 pixels
Display aspect ratio : 4:3
Frame rate : 25.000 fps
Standard : PAL
Color space : YUV
Chroma subsampling : 4:2:0
Bit depth : 8 bits
Scan type : Interlaced
Scan order : Top Field First
Compression mode : Lossy
Bits/(Pixel*Frame) : 0.266
Time code of first frame : 00:00:00:00
Time code source : Group of pictures header
Stream size : 887 MiB (90%)

Audio
ID : 192 (0xC0)
Format : MPEG Audio
Format version : Version 1
Format profile : Layer 2
Duration : 44mn 31s
Bit rate mode : Constant
Bit rate : 256 Kbps
Channel count : 2 channels
Sampling rate : 48.0 KHz
Compression mode : Lossy
Delay relative to video : -80ms
Stream size : 81.5 MiB (8%)

Menu