The audio is not coming with the picture


#1

Hello

The problem is that the voice is either cominig late or before the picture. I tried more than one USB and hard disk. I tried so many things but no way


#2

Can you post the file information with MediaInfo, please? We’ll need to know if it’s an .mkv, .mp4, .avi, etc. MediaInfo will provide this. Also, are you playing your files through a network? If so, what are the specifics to that configuration?


#3

Almost all of themare mp4 and some of them are AVI

and here is the info

Format                           : AVI
Format/Info                      : Audio Video Interleave
FileSize/String                  : 246 MiB
Duration/String                  : 24mn 30s
OverallBitRate/String            : 1 401 Kbps
Encoded_Library/String           : VirtualDub build 28346/release

Video
ID/String                        : 0
Format                           : AVC
Format/Info                      : Advanced Video Codec
Format_Profile                  
Format_Settings_CABAC/String     : Yes
Format_Settings_RefFrames/String : 1 frame
CodecID                          : H264
Duration/String                  : 24mn 29s
BitRate/String                   : 1 336 Kbps
Width/String                     : 1 280 pixels
Height/String                    : 720 pixels
DisplayAspectRatio/String        : 16:9
FrameRate/String                 : 23.976 fps
ColorSpace                       : YUV
ChromaSubsampling                : 4:2:0
BitDepth/String                  : 8 bits
ScanType/String                  : Progressive
Bits-(Pixel*Frame)               : 0.060
StreamSize/String                : 234 MiB (95%)
Encoded_Library/String           : x264 core 66 r1114bm a933a3e
Encoded_Library_Settings         : cabac=1 / ref=1 / deblock=1:0:0 / analyse=0x3:0x13 / me=umh / subme=7 / psy_rd=0.0:0.0 / mixed_ref=0 / me_range=16 / chroma_me=1 / trellis=1 / 8x8dct=1 / cqm=0 / deadzone=21,11 / chroma_qp_offset=0 / threads=1 / thread_queue=1 / nr=0 / decimate=1 / mbaff=0 / bframes=0 / keyint=250 / keyint_min=25 / scenecut=40 / rc=crf / crf=23.9 / qcomp=0.60 / qpmin=10 / qpmax=51 / qpstep=4 / ip_ratio=1.40 / aq=1:1.00:0:10.00

Audio
ID/String                        : 1
Format                           : MPEG Audio
Format_Version                   : Version 2
Format_Profile                   : Layer 3
Format_Settings_Mode             : Joint stereo
Format_Settings_ModeExtension    : Intensity Stereo + MS Stereo
CodecID                          : 55
CodecID/Hint                     : MP3
Duration/String                  : 24mn 30s
BitRate_Mode/String              : Constant
BitRate/String                   : 56.0 Kbps
Channel(s)/String                : 2 channels
SamplingRate/String              : 24.0 KHz
StreamSize/String                : 9.81 MiB (4%)
Alignment/String                 : Split accross interleaves
Interleave_Duration/String       : 42 ms (1.00 video frame)
Interleave_Preload/String        : 500 ms


#4

Format : MPEG-4 Format profile : Base Media Codec ID : isom File size : 249 MiB Duration : 23mn 36s Overall bit rate : 1 475 Kbps Encoded date : UTC 2010-05-10 10:34:34 Tagged date : UTC 2010-05-10 10:34:34 Video ID : 1 Format : AVC Format/Info : Advanced Video Codec Format profile : High@L4.1 Format settings, CABAC : Yes Format settings, ReFrames : 4 frames Codec ID : avc1 Codec ID/Info : Advanced Video Coding Duration : 23mn 36s Bit rate mode : Variable Bit rate : 1 350 Kbps Maximum bit rate : 9 055 Kbps Width : 1 280 pixels Height : 720 pixels Display aspect ratio : 16:9 Frame rate mode : Constant Frame rate : 23.976 fps Color space : YUV Chroma subsampling : 4:2:0 Bit depth : 8 bits Scan type : Progressive Bits/(Pixel*Frame) : 0.061 Stream size : 227 MiB (91%) Writing library : x264 core 80 r1376M 3feaec2 Encoding settings : cabac=1 / ref=4 / deblock=1:1:1 / analyse=0x3:0x113 / me=umh / subme=6 / psy=1 / psy_rd=0.6:0.0 / mixed_ref=1 / me_range=16 / chroma_me=1 / trellis=1 / 8x8dct=1 / cqm=0 / deadzone=21,11 / fast_pskip=1 / chroma_qp_offset=-2 / threads=12 / sliced_threads=0 / nr=0 / decimate=1 / mbaff=0 / constrained_intra=0 / bframes=3 / b_pyramid=0 / b_adapt=2 / b_bias=0 / direct=3 / wpredb=0 / wpredp=2 / keyint=250 / keyint_min=25 / scenecut=40 / rc_lookahead=40 / rc=2pass / mbtree=1 / bitrate=1350 / ratetol=1.0 / qcomp=0.60 / qpmin=10 / qpmax=51 / qpstep=4 / cplxblur=20.0 / qblur=0.5 / vbv_maxrate=50000 / vbv_bufsize=50000 / ip_ratio=1.40 / aq=1:0.00 Encoded date : UTC 2010-05-10 07:33:27 Tagged date : UTC 2010-05-10 10:34:55 Audio ID : 2 Format : AAC Format/Info : Advanced Audio Codec Format version : Version 4 Format profile : LC Format settings, SBR : No Codec ID : 40 Duration : 23mn 36s Bit rate mode : Variable Bit rate : 125 Kbps Maximum bit rate : 224 Kbps Channel(s) : 2 channels Channel positions : Front: L R Sampling rate : 48.0 KHz Stream size : 21.2 MiB (8%) Title : Imported with GPAC 0.4.6-DEV (build 1)


#5

and

Format                           : MPEG-4
Format profile                   : Base Media
Codec ID                         : isom
File size                        : 245 MiB
Duration                         : 24mn 29s
Overall bit rate                 : 1 397 Kbps
Encoded date                     : UTC 2010-04-26 06:04:09
Tagged date                      : UTC 2010-04-26 06:04:09

Video
ID                               : 1
Format                           : AVC
Format/Info                      : Advanced Video Codec
Format profile                   : High@L4.1
Format settings, CABAC           : Yes
Format settings, ReFrames        : 4 frames
Codec ID                         : avc1
Codec ID/Info                    : Advanced Video Coding
Duration                         : 24mn 29s
Bit rate mode                    : Variable
Bit rate                         : 1 326 Kbps
Maximum bit rate                 : 8 721 Kbps
Width                            : 1 280 pixels
Height                           : 740 pixels
Display aspect ratio             : 16/9
Frame rate mode                  : Constant
Frame rate                       : 23.976 fps
Resolution                       : 24 bits
Colorimetry                      : 4:2:0
Scan type                        : Progressive
Bits/(Pixel*Frame)               : 0.058
Stream size                      : 232 MiB (95%)
Title                            : Imported with GPAC 0.4.6-DEV (build 1)
Writing library                  : x264 core 80 r1376M 3feaec2
Encoding settings                : cabac=1 / ref=4 / deblock=1:1:1 / analyse=0x3:0x113 / me=umh / subme=6 / psy=1 / psy_rd=0.6:0.0 / mixed_ref=1 / me_range=16 / chroma_me=1 / trellis=1 / 8x8dct=1 / cqm=0 / deadzone=21,11 / fast_pskip=1 / chroma_qp_offset=-2 / threads=3 / sliced_threads=0 / nr=0 / decimate=1 / mbaff=0 / constrained_intra=0 / bframes=3 / b_pyramid=0 / b_adapt=2 / b_bias=0 / direct=3 / wpredb=0 / wpredp=2 / keyint=250 / keyint_min=25 / scenecut=40 / rc_lookahead=40 / rc=2pass / mbtree=1 / bitrate=1326 / ratetol=1.0 / qcomp=0.60 / qpmin=10 / qpmax=51 / qpstep=4 / cplxblur=20.0 / qblur=0.5 / vbv_maxrate=50000 / vbv_bufsize=50000 / ip_ratio=1.40 / aq=1:0.00
Encoded date                     : UTC 2010-04-26 06:04:09
Tagged date                      : UTC 2010-04-26 06:04:13

Audio
ID                               : 2
Format                           : AAC
Format/Info                      : Advanced Audio Codec
Format version                   : Version 4
Format profile                   : LC
Format settings, SBR             : No
Codec ID                         : 40
Duration                         : 24mn 29s
Bit rate mode                    : Variable
Bit rate                         : 68.7 Kbps
Maximum bit rate                 : 90.0 Kbps
Channel(s)                       : 1 channel
Channel positions                : C
Sampling rate                    : 48.0 KHz
Resolution                       : 16 bits
Stream size                      : 12.0 MiB (5%)