Avi out of sync


#1

Using WD Live 

tested with firmware 1.02xx and 1.03xx

General

Complete name                    : J:\Serien\Die Sopranos\6. Staffel\Sopranos.6x05.avi

Format                           : AVI

Format/Info                      : Audio Video Interleave

File size                        : 356 MiB

Duration                         : 50mn 23s

Overall bit rate                 : 988 Kbps

Writing library                  : VirtualDub build 24469/release

Video

ID                               : 0

Format                           : MPEG-4 Visual

Format profile                   : Advanced Simple@L5

Format settings, BVOP            : Yes

Format settings, QPel            : No

Format settings, GMC             : No warppoints

Format settings, Matrix          : Default (H.263)

Muxing mode                      : Packed bitstream

Codec ID                         : XVID

Codec ID/Hint                    : XviD

Duration                         : 50mn 23s

Bit rate                         : 850 Kbps

Width                            : 640 pixels

Height                           : 352 pixels

Display aspect ratio             : 16:9

Frame rate                       : 25.000 fps

Color space                      : YUV

Chroma subsampling               : 4:2:0

Bit depth                        : 8 bits

Scan type                        : Progressive

Bits/(Pixel*Frame)               : 0.151

Stream size                      : 306 MiB (86%)

Writing library                  : XviD 1.2.0.dev47 (UTC 2006-11-01)

Audio

ID                               : 1

Format                           : MPEG Audio

Format version                   : Version 1

Format profile                   : Layer 3

Mode                             : Joint stereo

Mode extension                   : MS Stereo

Codec ID                         : 55

Codec ID/Hint                    : MP3

Duration                         : 50mn 22s

Bit rate mode                    : Constant

Bit rate                         : 128 Kbps

Channel(s)                       : 2 channels

Sampling rate                    : 44.1 KHz

Stream size                      : 46.1 MiB (13%)

Alignment                        : Split accross interleaves

Interleave, duration             : 40 ms (1.00 video frame)

Interleave, preload duration     : 500 ms

GeneralComplete name                    : J:\Serien\Die Sopranos\6. Staffel\Sopranos.6x05.aviFormat                           : AVIFormat/Info                      : Audio Video InterleaveFile size                        : 356 MiBDuration                         : 50mn 23sOverall bit rate                 : 988 KbpsWriting library                  : VirtualDub build 24469/release
VideoID                               : 0Format                           : MPEG-4 VisualFormat profile                   : Advanced Simple@L5Format settings, BVOP            : YesFormat settings, QPel            : NoFormat settings, GMC             : No warppointsFormat settings, Matrix          : Default (H.263)Muxing mode                      : Packed bitstreamCodec ID                         : XVIDCodec ID/Hint                    : XviDDuration                         : 50mn 23sBit rate                         : 850 KbpsWidth                            : 640 pixelsHeight                           : 352 pixelsDisplay aspect ratio             : 16:9Frame rate                       : 25.000 fpsColor space                      : YUVChroma subsampling               : 4:2:0Bit depth                        : 8 bitsScan type                        : ProgressiveBits/(Pixel*Frame)               : 0.151Stream size                      : 306 MiB (86%)Writing library                  : XviD 1.2.0.dev47 (UTC 2006-11-01)
AudioID                               : 1Format                           : MPEG AudioFormat version                   : Version 1Format profile                   : Layer 3Mode                             : Joint stereoMode extension                   : MS StereoCodec ID                         : 55Codec ID/Hint                    : MP3Duration                         : 50mn 22sBit rate mode                    : ConstantBit rate                         : 128 KbpsChannel(s)                       : 2 channelsSampling rate                    : 44.1 KHzStream size                      : 46.1 MiB (13%)Alignment                        : Split accross interleavesInterleave, duration             : 40 ms (1.00 video frame)Interleave, preload duration     : 500 ms

WD Live is connected via hdmi

BTW WDTV also out of sync


#2

Welcome to the forums.

I really hate AVI containers – have you tried remuxing this with MKVMerge (you’ll need to use version 4.0 or earlier, or turn off header compression in the audio and video layers)?


#3

I don’t want to do this. WD should fix out of sync problems.


#4

Maybe you misunderstood me – I’m not saying it is or isn’t a problem with that file.  I just want to see if putting the file in a proper container fixes the issue.

If it doesn’t then we can explore further what the problem is.  But, if you don’t want to solve the problem, I guess it’s up to you.


#5

Do you have any idea how far out of sync they are?

I do see that the container thinks that the MP3 track is shorter than the Video, by a second.   I’m thinking they ought to be IDENTICAL, but I’m no XviD guru…


#6

at the beginning about 500ms to 1000ms at the end 2000ms. 


#7

Oh, yipes, now that I look at it the frame rate is 25 – that’s also very weird.

Overall I’d say the video is munged – how did you create it?


#8

Video ahead of Audio , or vice versa?

What I’m wondering is if the WDTV is ignoring the Preload info in the XVid.   If so, you can just remove it.


#9

I did not create this file: :slight_smile: In Germany everything is in 25fps.


#10

25p is the norm for PAL.


#11

Well, if you didn’t create it how did you buy it?

We can’t very well support piracy on this forum.


#12

I will convert these files with TMPGEnc 4.0 XPress using divx codec, I think.


#13

I’ve yet to see an AVI out of sync. Instead of recoding try remuxing with Alexander Noes AVIMux-GUI which could fix this.


#14

Converted to mp4, hopefully no more sync problems

General

Complete name                    : C:\Users\Mario\Documents\Project_1\Movie_04_(Sopranos.6x05).mp4

Format                           : MPEG-4

Format profile                   : Base Media

Codec ID                         : isom

File size                        : 437 MiB

Duration                         : 50mn 24s

Overall bit rate                 : 1 212 Kbps

Encoded date                     : UTC 2010-08-13 11:48:31

Tagged date                      : UTC 2010-08-13 11:48:31

Video

ID                               : 1

Format                           : AVC

Format/Info                      : Advanced Video Codec

Format profile                   : High@L3.0

Format settings, CABAC           : No

Format settings, ReFrames        : 1 frame

Codec ID                         : avc1

Codec ID/Info                    : Advanced Video Coding

Duration                         : 50mn 24s

Bit rate mode                    : Variable

Bit rate                         : 1 050 Kbps

Width                            : 640 pixels

Height                           : 352 pixels

Display aspect ratio             : 16:9

Frame rate mode                  : Constant

Frame rate                       : 25.000 fps

Standard                         : PAL

Color space                      : YUV

Chroma subsampling               : 4:2:0

Bit depth                        : 8 bits

Scan type                        : Progressive

Bits/(Pixel*Frame)               : 0.186

Stream size                      : 378 MiB (87%)

Language                         : English

Encoded date                     : UTC 2010-08-13 11:48:31

Tagged date                      : UTC 2010-08-13 11:48:31

Color primaries                  : BT.470-6 System B, BT.470-6 System G, BT.601-6 625, BT.1358 625, BT.1700 625 PAL, BT.1700 625 SECAM

Transfer characteristics         : BT.470-6 System B, BT.470-6 System G

Matrix coefficients              : BT.470-6 System B, BT.470-6 System G, BT.601-6 625, BT.1358 625, BT.1700 625 PAL, BT.1700 625 SECAM, IEC 61966-2-4 601

Audio

ID                               : 2

Format                           : AAC

Format/Info                      : Advanced Audio Codec

Format version                   : Version 4

Format profile                   : LC

Format settings, SBR             : No

Codec ID                         : 40

Duration                         : 50mn 20s

Bit rate mode                    : Constant

Bit rate                         : 160 Kbps

Channel(s)                       : 2 channels

Channel positions                : Front: L R

Sampling rate                    : 48.0 KHz

Stream size                      : 57.6 MiB (13%)

Language                         : English

Encoded date                     : UTC 2010-08-13 11:48:31

Tagged date                      : UTC 2010-08-13 11:48:31

GeneralComplete name                    : C:\Users\Mario\Documents\Project_1\Movie_04_(Sopranos.6x05).mp4Format                           : MPEG-4Format profile                   : Base MediaCodec ID                         : isomFile size                        : 437 MiBDuration                         : 50mn 24sOverall bit rate                 : 1 212 KbpsEncoded date                     : UTC 2010-08-13 11:48:31Tagged date                      : UTC 2010-08-13 11:48:31
VideoID                               : 1Format                           : AVCFormat/Info                      : Advanced Video CodecFormat profile                   : High@L3.0Format settings, CABAC           : NoFormat settings, ReFrames        : 1 frameCodec ID                         : avc1Codec ID/Info                    : Advanced Video CodingDuration                         : 50mn 24sBit rate mode                    : VariableBit rate                         : 1 050 KbpsWidth                            : 640 pixelsHeight                           : 352 pixelsDisplay aspect ratio             : 16:9Frame rate mode                  : ConstantFrame rate                       : 25.000 fpsStandard                         : PALColor space                      : YUVChroma subsampling               : 4:2:0Bit depth                        : 8 bitsScan type                        : ProgressiveBits/(Pixel*Frame)               : 0.186Stream size                      : 378 MiB (87%)Language                         : EnglishEncoded date                     : UTC 2010-08-13 11:48:31Tagged date                      : UTC 2010-08-13 11:48:31Color primaries                  : BT.470-6 System B, BT.470-6 System G, BT.601-6 625, BT.1358 625, BT.1700 625 PAL, BT.1700 625 SECAMTransfer characteristics         : BT.470-6 System B, BT.470-6 System GMatrix coefficients              : BT.470-6 System B, BT.470-6 System G, BT.601-6 625, BT.1358 625, BT.1700 625 PAL, BT.1700 625 SECAM, IEC 61966-2-4 601
AudioID                               : 2Format                           : AACFormat/Info                      : Advanced Audio CodecFormat version                   : Version 4Format profile                   : LCFormat settings, SBR             : NoCodec ID                         : 40Duration                         : 50mn 20sBit rate mode                    : ConstantBit rate                         : 160 KbpsChannel(s)                       : 2 channelsChannel positions                : Front: L RSampling rate                    : 48.0 KHzStream size                      : 57.6 MiB (13%)Language                         : EnglishEncoded date                     : UTC 2010-08-13 11:48:31Tagged date                      : UTC 2010-08-13 11:48:31