Why does this file have no audio output


#1

So plug this file into thumb drive as usual and video was fine but no audio from the player, yet it plays fine on the PC, so using Media Player Classic HC 1.7.10.25 i looked at the file properties and gat this info.

Complete name : K:**************.avi
Format : AVI
Format/Info : Audio Video Interleave
Format profile : OpenDML
File size : 1.15 GiB
Duration : 1 h 27 min
Overall bit rate : 1 884 kb/s
Writing application : Lavf57.82.100

Video
ID : 0
Format : MPEG-4 Visual
Format profile : Advanced Simple@L5
Format settings, BVOP : 2
Format settings, QPel : No
Format settings, GMC : No warppoints
Format settings, Matrix : Default (H.263)
Muxing mode : Packed bitstream
Codec ID : XVID
Codec ID/Hint : XviD
Duration : 1 h 27 min
Bit rate : 1 487 kb/s
Width : 720 pixels
Height : 304 pixels
Display aspect ratio : 2.35:1
Frame rate : 24.000 FPS
Color space : YUV
Chroma subsampling : 4:2:0
Bit depth : 8 bits
Scan type : Progressive
Compression mode : Lossy
Bits/(Pixel*Frame) : 0.283
Stream size : 925 MiB (79%)
Writing library : XviD 66

Audio
ID : 1
Format : AC-3
Format/Info : Audio Coding 3
Codec ID : 00001000-0000-0020-8000-00AA00389B71
Duration : 1 h 27 min
Bit rate : 384 kb/s
Channel(s) : 6 channels
Channel positions : Front: L C R, Side: L R, LFE
Sampling rate : 48.0 kHz
Bit depth : 16 bits
Compression mode : Lossy
Stream size : 239 MiB (20%)
Interleave, duration : 32 ms (0.77 video frame)

As i say plays video fine but no idea why it will not play audio, can anyone shed some light on this for me and how to fix it without altering the video side of things

All1