WD2Go app - unable to play video

I have numerous .m4v video loaded on my MBL and they play/stream just fine. All were ripped w/Handbrake and formatted for ATV3. So I have some MKV movies that were reformatted w/Handbrake using the same settings.

When the WD2Go app tries to open those videos I get an unable to play this video error. They play just fine on my Mac and Win7 machines in iTunes, as well as VLC and QuickTime.

Any idea why this is happening?

Apple’s native video player, which WD 2go uses, doesn’t support MKV format

Your can download the files in WD 2go, then “Open In” any number of apps that support MKV.

I know MKV is not supported but this video was recoded w/Handbrake to m4v like all my other videos (ripped DVD not bluray). It plays fine in iTunes.

Sorry, I misunderstood your post. Please post the full TEXT output of MEDIAINFO for one of those files.

mediainfo.sourceforge.net

Here you go:

Format                                   : MPEG-4

Format profile                           : Base Media / Version 2

Codec ID                                 : mp42

File size                                : 9.43 GiB

Duration                                 : 2h 19mn

Overall bit rate mode                    : Variable

Overall bit rate                         : 9 708 Kbps

Movie name                               : The Guardian

Recorded date                            : 2006

Encoded date                             : UTC 2013-08-30 18:50:51

Tagged date                              : UTC 2013-08-31 12:36:38

Writing application                      : HandBrake 0.9.9 2013052900

Cover                                    : Yes

Video

ID                                       : 1

Format                                   : AVC

Format/Info                              : Advanced Video Codec

Format profile                           : High@L4.0

Format settings, CABAC                   : Yes

Format settings, ReFrames                : 4 frames

Codec ID                                 : avc1

Codec ID/Info                            : Advanced Video Coding

Duration                                 : 2h 19mn

Bit rate mode                            : Variable

Bit rate                                 : 8 903 Kbps

Width                                    : 1 920 pixels

Height                                   : 1 036 pixels

Display aspect ratio                     : 1.85:1

Frame rate mode                          : Variable

Frame rate                               : 23.976 fps

Minimum frame rate                       : 23.810 fps

Maximum frame rate                       : 30.000 fps

Color space                              : YUV

Chroma subsampling                       : 4:2:0

Bit depth                                : 8 bits

Scan type                                : Progressive

Bits/(Pixel*Frame)                       : 0.187

Stream size                              : 8.65 GiB (92%)

Writing library                          : x264 core 130 r2273 b3065e6

Encoding settings                        : cabac=1 / ref=3 / deblock=1:0:0 / analyse=0x3:0x113 / me=hex / subme=7 / psy=1 / psy_rd=1.00:0.00 / mixed_ref=1 / me_range=16 / chroma_me=1 / trellis=1 / 8x8dct=1 / cqm=0 / deadzone=21,11 / fast_pskip=1 / chroma_qp_offset=-2 / threads=3 / lookahead_threads=1 / sliced_threads=0 / nr=0 / decimate=1 / interlaced=0 / bluray_compat=0 / constrained_intra=0 / bframes=3 / b_pyramid=2 / b_adapt=1 / b_bias=0 / direct=1 / weightb=1 / open_gop=0 / weightp=2 / keyint=300 / keyint_min=30 / scenecut=40 / intra_refresh=0 / rc_lookahead=40 / rc=crf / mbtree=1 / crf=20.0 / qcomp=0.60 / qpmin=0 / qpmax=69 / qpstep=4 / vbv_maxrate=25000 / vbv_bufsize=31250 / crf_max=0.0 / nal_hrd=none / ip_ratio=1.40 / aq=1:1.00

Encoded date                             : UTC 2013-08-30 18:50:51

Tagged date                              : UTC 2013-08-31 12:36:38

Color primaries                          : BT.709

Transfer characteristics                 : BT.709

Matrix coefficients                      : BT.709

Audio #1

ID                                       : 2

Format                                   : AAC

Format/Info                              : Advanced Audio Codec

Format profile                           : LC

Codec ID                                 : 40

Duration                                 : 2h 19mn

Bit rate mode                            : Variable

Bit rate                                 : 160 Kbps

Maximum bit rate                         : 274 Kbps

Channel(s)                               : 2 channels

Channel positions                        : Front: L R

Sampling rate                            : 48.0 KHz

Compression mode                         : Lossy

Delay relative to video                  : 83ms

Stream size                              : 159 MiB (2%)

Language                                 : English

Encoded date                             : UTC 2013-08-30 18:50:51

Tagged date                              : UTC 2013-08-31 12:36:36

Audio #2

ID                                       : 3

Format                                   : AC-3

Format/Info                              : Audio Coding 3

Mode extension                           : CM (complete main)

Format settings, Endianness              : Big

Codec ID                                 : ac-3

Duration                                 : 2h 19mn

Bit rate mode                            : Constant

Bit rate                                 : 640 Kbps

Channel(s)                               : 6 channels

Channel positions                        : Front: L C R, Side: L R, LFE

Sampling rate                            : 48.0 KHz

Bit depth                                : 16 bits

Compression mode                         : Lossy

Delay relative to video                  : 83ms

Stream size                              : 637 MiB (7%)

Language                                 : English

Encoded date                             : UTC 2013-08-30 18:50:51

Tagged date                              : UTC 2013-08-31 12:36:36

Menu

ID                                       : 4

Codec ID                                 : text

Duration                                 : 2h 19mn

Encoded date                             : UTC 2013-08-30 18:50:51

Tagged date                              : UTC 2013-08-31 12:36:38

Bit rate mode                            : VBR

I’m not sure, but 9GB filesize? Thats VEEY big for iPad compliant video.  I dont think WD 2go can play files that large.  It also seems WAY too big to have come from a DVD.  Heck, a DVD can only old 9GB including all the menus and bonus material.

This file, at 9.43GB is too big to be a DVD.

TonyPh12345 wrote:

I’m not sure, but 9GB filesize? Thats VEEY big for iPad compliant video.  I dont think WD 2go can play files that large.  It also seems WAY too big to have come from a DVD.  Heck, a DVD can only old 9GB including all the menus and bonus material.

 

This file, at 9.43GB is too big to be a DVD.

Its was 16.85GB MKV files ripped from bluray. After handbrake it was reduced. So this is a limitation then.