WD HD LIve


#1

Hi all,

I have an issue when playing some movies, by the looks like it just .avis.

What happens is it starts to lag up and freezes  on some but not all films i play, i have had issues with this with some on a few updates in the past, i just updated to the latest one and it still happens.

My WD live box uses home plugs which connect to the PC upstairs, from what i can remember i didnt used to happen when i first got it.

Im going to try and reset to factory default to see if it clears up, any other Ideas what can cause it?

Regards

DSW.


#2

Can you post the media info of few of the movies that give are giving you this issue?

http://wdc.custhelp.com/app/answers/detail/a_id/2745/session/L3RpbWUvMTMwMDgxMzQzNi9zaWQvQy01d25BcGs%3D


#3

Hi,

Here is one of the films that i had issues with.

General
Complete name                    : H:\Media\to be sorted\Tucker and Dale Vs Evil WorkPrint Xvid-OlFa.avi
Format                           : AVI
Format/Info                      : Audio Video Interleave
File size                        : 1.31 GiB
Duration                         : 1h 23mn
Overall bit rate                 : 2 258 Kbps
Writing application              : VirtualDubMod 1.5.4.1 (build 2178/release)
Writing library                  : VirtualDubMod build 2178/release

Video
ID                               : 0
Format                           : MPEG-4 Visual
Format profile                   : Advanced Simple@L4
Format settings, BVOP            : 1
Format settings, QPel            : No
Format settings, GMC             : No warppoints
Format settings, Matrix          : Default (MPEG)
Codec ID                         : XVID
Codec ID/Hint                    : XviD
Duration                         : 1h 23mn
Bit rate                         : 2 117 Kbps
Width                            : 720 pixels
Height                           : 408 pixels
Display aspect ratio             : 16:9
Frame rate                       : 29.970 fps
Color space                      : YUV
Chroma subsampling               : 4:2:0
Bit depth                        : 8 bits
Scan type                        : Progressive
Compression mode                 : Lossy
Bits/(Pixel*Frame)               : 0.240
Stream size                      : 1.23 GiB (94%)
Writing library                  : XviD 1.2.0.dev47 (UTC 2006-11-01)

Audio
ID                               : 1
Format                           : MPEG Audio
Format version                   : Version 1
Format profile                   : Layer 3
Mode                             : Joint stereo
Mode extension                   : MS Stereo
Codec ID                         : 55
Codec ID/Hint                    : MP3
Duration                         : 1h 23mn
Bit rate mode                    : Constant
Bit rate                         : 128 Kbps
Channel(s)                       : 2 channels
Sampling rate                    : 44.1 KHz
Compression mode                 : Lossy
Stream size                      : 76.0 MiB (6%)
Alignment                        : Aligned on interleaves
Interleave, duration             : 26 ms (0.78 video frame)
Interleave, preload duration     : 522 ms
Writing library                  : LAME3.98.2