Video/audio stutter on high bit rate files


#1

after we resolved  my problem with playing .ts and .tp files I went on a spree and found some hq files.

the video on this one starts to stutter after playing for about 10-15 seconds and soon after the audio drops out completely. the audio it only comes through as stereo also.

Complete name : E:\My Documents\My Videos\Music\소녀시대\SNSD - Oh! [kpopflash.net].tpFormat : MPEG-TSFile size : 1 022 MiBDuration : 3mn 37sOverall bit rate : 39.3 MbpsVideoID : 4096 (0x1000)Menu ID : 1 (0x1)Format : MPEG VideoFormat version : Version 2Format profile : Main@HighFormat settings, BVOP : YesFormat settings, Matrix : DefaultDuration : 3mn 37sBit rate mode : ConstantBit rate : 36.2 MbpsNominal bit rate : 38.0 MbpsWidth : 1 920 pixelsHeight : 1 080 pixelsDisplay aspect ratio : 16:9Frame rate : 29.970 fpsResolution : 8 bitsColorimetry : 4:2:0Scan type : InterlacedScan order : Top Field FirstBits/(Pixel*Frame) : 0.583Stream size : 940 MiB (92%)AudioID : 4097 (0x1001)Menu ID : 1 (0x1)Format : AC-3Format/Info : Audio Coding 3Duration : 3mn 37sBit rate mode : ConstantBit rate : 384 KbpsChannel(s) : 6 channelsChannel positions : Front: L C R, Side: L R, LFESampling rate : 48.0 KHzStream size : 9.95 MiB (1%)Language : English

my receiver clicks over to digital when this one plays, but about 30 seconds in the same thing happens.

if I hit stop then resume either of them they’ll play clean for a bit, but it starts to stutter again.

Complete name : E:\My Documents\My Videos\Music\소녀시대\Tell Me Your Wish (Genie).tpFormat : MPEG-TSFile size : 1.05 GiBDuration : 4mn 8sOverall bit rate : 36.3 MbpsVideoID : 481 (0x1E1)Menu ID : 1 (0x1)Format : MPEG VideoFormat version : Version 2Format profile : Main@HighFormat settings, BVOP : YesFormat settings, Matrix : DefaultFormat_Settings_GOP : M=3, N=15Duration : 4mn 8sBit rate mode : ConstantBit rate : 33.4 MbpsNominal bit rate : 35.0 MbpsWidth : 1 920 pixelsHeight : 1 080 pixelsDisplay aspect ratio : 16:9Frame rate : 29.970 fpsResolution : 8 bitsColorimetry : 4:2:0Scan type : InterlacedScan order : Top Field FirstBits/(Pixel*Frame) : 0.537Stream size : 989 MiB (92%)AudioID : 482 (0x1E2)Menu ID : 1 (0x1)Format : AC-3Format/Info : Audio Coding 3Duration : 4mn 8sBit rate mode : ConstantBit rate : 448 KbpsChannel(s) : 6 channelsChannel positions : Front: L C R, Side: L R, LFESampling rate : 48.0 KHzVideo delay : -67msStream size : 13.3 MiB (1%)Language : English

my housemate told me it happened to him when was watching this mkv too.

Format : MatroskaFile size : 10.9 GiBDuration : 2h 41mnOverall bit rate : 9 674 KbpsWriting application : x264.exeWriting library : mkv2rls v1.2 (date: 2010 febr 17)VideoID : 1Format : AVCFormat/Info : Advanced Video CodecFormat profile : High@L4.1Format settings, CABAC : YesFormat settings, ReFrames : 4 framesMuxing mode : Container profile=Unknown@4.1Codec ID : V_MPEG4/ISO/AVCDuration : 2h 41mnBit rate : 7 972 KbpsNominal bit rate : 8 171 KbpsWidth : 1 920 pixelsHeight : 1 080 pixelsDisplay aspect ratio : 16:9Frame rate : 23.976 fpsResolution : 8 bitsColorimetry : 4:2:0Scan type : ProgressiveBits/(Pixel*Frame) : 0.160Stream size : 8.99 GiB (82%)Writing library : x264 core 93 r1542 5b86182Encoding settings : cabac=1 / ref=4 / deblock=1:0:0 / analyse=0x3:0x133 / me=umh / subme=7 / psy=1 / psy_rd=1.00:0.00 / mixed_ref=1 / me_range=16 / chroma_me=1 / trellis=1 / 8x8dct=1 / cqm=0 / deadzone=21,11 / fast_pskip=1 / chroma_qp_offset=-2 / threads=12 / sliced_threads=0 / nr=0 / decimate=0 / interlaced=0 / constrained_intra=0 / bframes=3 / b_pyramid=2 / b_adapt=1 / b_bias=0 / direct=3 / wpredb=1 / wpredp=2 / keyint=240 / keyint_min=24 / scenecut=40 / intra_refresh=0 / rc_lookahead=30 / rc=2pass / mbtree=1 / bitrate=8171 / ratetol=1.0 / qcomp=0.60 / qpmin=10 / qpmax=51 / qpstep=4 / cplxblur=20.0 / qblur=0.5 / ip_ratio=1.40 / aq=1:1.00AudioID : 2Format : DTSFormat/Info : Digital Theater SystemsCodec ID : A_DTSDuration : 2h 41mnBit rate mode : ConstantBit rate : 1 510 KbpsChannel(s) : 6 channelsChannel positions : Front: L C R, Side: L R, LFESampling rate : 48.0 KHzResolution : 24 bitsStream size : 1.71 GiB (16%)Title : English DTS 1509kbpsLanguage : English

#2

Wow, those are high bit rate files indeed.  You definitely won’t be playing those wirelessly.

My highest bit rate files max out at about 30mbps, so it’s *possible* you’ve exceeded the capacity of your network streaming (if via network) or the Live itself (if directly hard wired).  If it’s through your network you can eliminate that possibility by trying a flash drive directly connected to the Live and seeing if the file plays okay (if it does, you know it’s a network issue).  If it won’t play that way, then it’s a Live problem.