Problem playing AVCHD from photo camera


#1

I have a problem playing the files from Panasonic DMC-TZ7 which produces AVCHD files. I rename the MTS extension to something else and files get recognized but they seem to be played with a half framerate.

Sound is ok but the video is jerky and like slow motion. It’s always like that regardless of a video output setting of WDEP.

Below is a video stream info, is it because of high bitrate or something else, anyone has an idea ?

Format                           : BDAV
Format/Info                      : Blu-ray Video
File size                        : 40.5 MiB
Duration                         : 22s 336ms
Overall bit rate                 : 15.2 Mbps
Maximum Overall bit rate         : 18.0 Mbps

Video
ID                               : 4113 (0x1011)
Menu ID                          : 1 (0x1)
Format                           : AVC
Format/Info                      : Advanced Video Codec
Format profile                   : High@L4.0
Format settings, CABAC           : No
Format settings, ReFrames        : 1 frame
Duration                         : 22s 320ms
Bit rate                         : 14.4 Mbps
Width                            : 1 280 pixels
Height                           : 720 pixels
Display aspect ratio             : 16:9
Frame rate                       : 50.000 fps
Standard                         : NTSC
Resolution                       : 24 bits
Colorimetry                      : 4:2:0
Scan type                        : Progressive
Bits/(Pixel*Frame)               : 0.313
Stream size                      : 38.3 MiB (95%)

Audio
ID                               : 4352 (0x1100)
Menu ID                          : 1 (0x1)
Format                           : AC-3
Format/Info                      : Audio Coding 3
Duration                         : 22s 336ms
Bit rate mode                    : Constant
Bit rate                         : 192 Kbps
Channel(s)                       : 2 channels
Channel positions                : L R
Sampling rate                    : 48.0 KHz
Stream size                      : 524 KiB (1%)

Format                           : BDAV
Format/Info                      : Blu-ray Video
File size                        : 40.5 MiB
Duration                         : 22s 336ms
Overall bit rate                 : 15.2 Mbps
Maximum Overall bit rate         : 18.0 Mbps


#2

Are you connecting the camera directly or is it media from you camera on the drive?


#3

All movies are on the drive.