Mi WD tv live no lee algunos videos .avi

Buenas, me presento, soy nuevo.
Tengo un WDTv Live desde hace años y ni me había enterado que había semejante foro.
Realmente sólo lo he utilizado para reproducir películas. Lo lee casi todo. Casi.
Acabo de capturar mis viejas cintas MiniDv a un Disco duro con una expresscard. Cada cinta de 1 hora de video ha generado un archivo de 13,2 Gb en formato avi. Mi sorpresa es que el WDtv live dice que no es un tipo de archivo compatible. No lo lee. El Pc sí con windows media player o cualquier otro reproductor (Media Player Classic, etc.)
Antes de tener que convertir todos los archivos capturados (58), quiero saber si hay alguna manera de reproducir los archivos:

  • Es posible reproducirlos desde el Pc mediante Wifi, utilizando de puente el WD tv live?
  • Se pueden descargar los códecs que falten para ampliar los que lleva el WDtv live?
  • ¿Alguna otra posibilidad que se me escape?
    Otra solución sería conectar el Pc por Hdmi al Tv pero el mío no tiene.

Saludos,

Hola,

Te recomendaria que verifiques si el archivo es completamente soportado por el WDTV. Para esto, seria bueno que busques el media info del archivo a ver si algun code de audio o video que no es soportado.

Visita el siguiente enlace para mas informacion del media info.
https://mediaarea.net/es/MediaInfo

Gracias por tu respuesta ERmorel, esto es lo que me aparece:
Format : AVI
Format/Info : Audio Video Interleave
Commercial name : DVCPRO
File size : 2.59 MiB
Duration : 720ms
Overall bit rate mode : Constant
Overall bit rate : 30.2 Mbps

Video
ID : 0
Format : DV
Commercial name : DVCPRO
Codec ID : dvsd
Codec ID/Hint : Sony
Duration : 720ms
Bit rate mode : Constant
Bit rate : 24.4 Mbps
Encoded bit rate : 28.8 Mbps
Width : 720 pixels
Height : 576 pixels
Display aspect ratio : 4:3
Frame rate mode : Constant
Frame rate : 25.000 fps
Standard : PAL
Color space : YUV
Chroma subsampling : 4:2:0
Bit depth : 8 bits
Scan type : Interlaced
Scan order : Bottom Field First
Compression mode : Lossy
Bits/(Pixel*Frame) : 2.357
Stream size : 2.47 MiB (95%)

Audio
ID : 1
Format : PCM
Format settings, Endianness : Little
Format settings, Sign : Signed
Codec ID : 1
Duration : 720ms
Bit rate mode : Constant
Bit rate : 1 024 Kbps
Channel(s) : 2 channels
Sampling rate : 32.0 KHz
Bit depth : 16 bits
Stream size : 90.0 KiB (3%)
Alignment : Aligned on interleaves
Interleave, duration : 40 ms (1.00 video frame)

Lo he comprobado con otros videos capturados. El Pc los reproduce sin problemas con el reproductor de windows pero el WD no. Debe ser algún tipo de Avi diferente ya que las pelis en formato .avi que se bajan normalmente las reproduce perfectamente.

Saludos,