Differences between 2 nearly identical AVIs


#1

Hi everybody, I got a little problem and I am *sure* you hotshots will solve it in instant !

I have two AVI files, one plays fine and the other doesn’t. Mediainfo shows me two nearly identical sheets, but there are, of course, several differences. Could someone point out what’s wrong with the bad one ?

Thanks in advance !

This one works


General

Format                           : AVI

Format/Info                      : Audio Video Interleave

Format profile                   : OpenDML

File size                        : 3.80 GiB

Duration                         : 2h 2mn

Overall bit rate                 : 4 455 Kbps

Writing application              : VirtualDubMod 1.5.10.2 (build 2549/release)

Writing library                  : VirtualDub build 23774/release

VideoID                               : 0

Format                           : MPEG-4Visual

Format profile                   : Advanced Simple@L5

Format settings, BVOP            : Yes

Format settings, QPel            : No

Format settings, GMC             : No warppoints

Format settings, Matrix          : Default (H.263)

Muxing mode                      : Packed bitstream

Codec ID                         : XVID

Codec ID/Hint                    : XviD

Duration                         : 2h 2mn

Bit rate                         : 3 997 Kbps

Width                            : 1 920 pixels

Height                           : 816 pixels

Display aspect ratio             : 2.35:1

Frame rate                       : 25.000 fps

Color space                      : YUV

Chroma subsampling               : 4:2:0

Bit depth                        : 8 bits

Scan type                        : Progressive

Bits/(Pixel*Frame)               : 0.102

Stream size                      : 3.41 GiB (90%)

Writing library                  : XviD 1.2.0SMP (UTC 2006-01-08)

AudioID                               : 1

Format                           : AC-3

Format/Info                      : Audio Coding 3

Mode extension                   : CM (complete main)

Codec ID                         : 2000

Duration                         : 2h 2mn

Bit rate mode                    : Constant

Bit rate                         : 448 Kbps

Channel(s)                       : 6 channels

Channel positions                : Front: L C R, Side: L R, LFE

Sampling rate                    : 48.0 KHz

Bit depth                        : 16 bits

Video delay                      : 504ms

Stream size                      : 391 MiB (10%)

Alignment                        : Split accross interleaves

Interleave, duration             : 40 ms (1.00 video frame)

Interleave, preload duration     : 500 ms


This one doesn’t work


General

Format                           : AVI

Format/Info                      : Audio Video Interleave

Format profile                   : OpenDML

File size                        : 4.19 GiB

Duration                         : 1h 59mn

Overall bit rate                 : 5 019 Kbps

Writing application              : Nandub v1.0rc2

Writing library                  : Nandub build 1853/release

VideoID                               : 0

Format                           : MPEG-4 Visual

Format profile                   : Simple@L3

Format settings, BVOP            : No

Format settings, QPel            : No

Format settings, GMC             : No warppoints

Format settings, Matrix          : Default (H.263)

Codec ID                         : XVID

Codec ID/Hint                    : XviD

Duration                         : 1h 59mn

Bit rate                         : 4 562 Kbps

Width                            : 1 280 pixels

Height                           : 720 pixels

Display aspect ratio             : 16:9

Frame rate                       : 25.000 fps

Color space                      : YUV

Chroma subsampling               : 4:2:0

Bit depth                        : 8 bits

Scan type                        : Progressive

Bits/(Pixel*Frame)               : 0.198

Stream size                      : 3.81 GiB (91%)

Writing library                  : XviD 1.2.0.dev47 (UTC 2006-11-01)

AudioID                               : 1

Format                           : AC-3

Format/Info                      : Audio Coding 3

Mode extension                   : CM (complete main)

Codec ID                         : 2000

Duration                         : 1h 59mn

Bit rate mode                    : Constant

Bit rate                         : 448 Kbps

Channel(s)                       : 6 channels

Channel positions                : Front: L C R, Side: L R, LFE

Sampling rate                    : 48.0 KHz

Bit depth                        : 16 bits

Stream size                      : 383 MiB (9%)

Alignment                        : Split accross interleaves

Interleave, duration             : 40 ms (1.00 video frame)


#2

And to help, I now take the liberty to delete the identical parts :> * * *
El_Chorizo wrote:

 


This one works


General

File size                        : 3.80 GiB

Duration                         : 2h 2mn

Overall bit rate                 : 4 455 Kbps

Writing application              : VirtualDubMod 1.5.10.2 (build 2549/release)

Writing library                  : VirtualDub build 23774/release

VideoID                               : 0

Format profile                   : Advanced Simple@L5

Format settings, BVOP            : Yes

Muxing mode                      : Packed bitstream

Duration                         : 2h 2mn

Bit rate                         : 3 997 Kbps

Width                            : 1 920 pixels

Height                           : 816 pixels

Display aspect ratio             : 2.35:1

Bits/(Pixel*Frame)               : 0.102

Stream size                      : 3.41 GiB (90%)

Writing library                  : XviD 1.2.0SMP (UTC 2006-01-08)

 

AudioID                               : 1

Duration                         : 2h 2mn

Video delay                      : 504ms

Stream size                      : 391 MiB (10%)

Interleave, preload duration     : 500 ms

 


This one doesn’t work


General

File size                        : 4.19 GiB

Duration                         : 1h 59mn

Overall bit rate                 : 5 019 Kbps

Writing application              : Nandub v1.0rc2

Writing library                  : Nandub build 1853/release

 

VideoID                               : 0

Format profile                   : Simple@L3

Format settings, BVOP            : No

Duration                         : 1h 59mn

Bit rate                         : 4 562 Kbps

Width                            : 1 280 pixels

Height                           : 720 pixels

Display aspect ratio             : 16:9

Bits/(Pixel*Frame)               : 0.198

Stream size                      : 3.81 GiB (91%)

Writing library                  : XviD 1.2.0.dev47 (UTC 2006-11-01)

 

AudioID                               : 1

Duration                         : 1h 59mn

Stream size                      : 383 MiB (9%)

 


#3

Are you sure you have those in the right order?  The bottom one says it’s ASP@L5.

According to WD:  ASP@L5 supports MPEG4.2 ASP@L5 up to 1280x720p30 resolution and no support for global motion compensation.

So, your  resolution is too high.


#4

Thanks for your answer but yes, I checked again just to be sure, and it’s the right order…


#5

I’m not a big fan of AVIs (and never heard of Nandub) so my advice would be to try and remux with MKVmerge (but NOT the latest version – try 4.0 or earlier).  That should solve any glaring errors although, as Tony says, the resolution is a bit off putting.

If it still doesn’t play after MKV conversion there is definitely a basic codec issue.


#6

Or with a current MKVMerge by turning compression OFF on audio and video tracks, is that it ?

Well, I’ll try today (it’s early morning here), thanks a lot !


#7

Turning header compression off, yes.

It will be interesting to see what happens.


#8

Hey, I came across this post while experiencing the same problem.  I initially thought that it was due to the differences in files and encoding, until I tried accessing them from a USB drive instead of over our wireless network. Two nearly identical AVIs with slight differences ended up working via that route, where they wouldn’t play previously.

So… looking at networking/sharing issues, I realized this was a Windows 7 issue. All files I already had when I setup sharing were fine, new ones were not. I had to go back to the video folder and re-share the files by playing with the permissions.

Hope this helps


#9

Welcome to the forums.

It’s an interesting idea – we never asked the original poster how he was accessing the files (and he never came back to let us know what happened when he remuxed) but it’s always possible this was the case.

At least in the future we have something else to consider.  Thanks for posting.