AVI Issue


#1

I have a WDTV LIVE HD Media Player Version 1.02(i think)

My hd avi video stops at the last ten minutes (sometimes less)

Here’s some info about the files. Please help

General
Complete name : C:\Downloads\BBC Planet Earth\BBC.Planet.Earth.05of11.Deserts.avi
Format : AVI
Format/Info : Audio Video Interleave
Format profile : OpenDML
File size : 2.12 GiB
Duration : 47mn 54s
Overall bit rate : 6 347 Kbps
Writing application : VirtualDubMod 1.5.10.2 (build 2540/release)
Writing library : VirtualDubMod build 2540/release
Video
ID : 0
Format : MPEG-4 Visual
Format settings, BVOP : Yes
Format settings, QPel : No
Format settings, GMC : No warppoints
Format settings, Matrix : Default (H.263)
Muxing mode : Packed bitstream
Codec ID : DX50
Codec ID/Hint : DivX 5
Duration : 47mn 54s
Bit rate : 5 950 Kbps
Width : 1 280 pixels
Height : 720 pixels
Display aspect ratio : 16:9
Frame rate : 25.000 fps
Color space : YUV
Chroma subsampling : 4:2:0
Bit depth : 8 bits
Scan type : Progressive
Bits/(Pixel*Frame) : 0.258
Stream size : 1.99 GiB (94%)
Writing library : DivX 6.2.5 (UTC 2006-07)
Audio
ID : 1
Format : AC-3
Format/Info : Audio Coding 3
Mode extension : CM (complete main)
Codec ID : 2000
Duration : 47mn 54s
Bit rate mode : Constant
Bit rate : 384 Kbps
Channel(s) : 6 channels
Channel positions : Front: L C R, Side: L R, LFE
Sampling rate : 48.0 KHz
Bit depth : 16 bits
Video delay : 28ms
Stream size : 132 MiB (6%)
Alignment : Split accross interleaves
Interleave, duration : 40 ms (1.00 video frame)
Interleave, preload duration : 500 ms

#2

Welcome to the forums.

BBC shows are notorious for being improperly coded – they have all kinds of issues (assuming this was ripped from a DVD).  You can try running it through Handbrake (use the High Profile preset but output to a MKV) and if that doesn’t fix it I’m not sure what will.


#3

From looking at the file name I would assume that it is a torrent / pirate download.