Reply
Occasional Contributor
tavellone
Posts: 6
Registered: ‎01-20-2012
0

lettore si blocca ed impalla con file mkv

[ Edited ]

ciao ragazzi,

 

ho un problema con la visione di un file mkv. si blocca dipo pochi secondi impallando il lettore al punto tale che devo resettare alle impostazioni di fabbrica. non è l'unico mkv della mia collezione, ne ho altri che funzionano benissimo ma questo mi sta mandando al manicomio. la visione del file sul pc è perfetta.

 

il lettore è questo http://www.wdc.com/wdproducts/updates/?family=wdfWDTV_Live_G3 e ha il fw 1.07.18 .

 

questo l'header del file:

 

General
Unique ID                        : 95593608067371798409989213183132965718 (0x47EAA8C3180AA6F95B5779BB944A1B56)
Complete name                    : \\Share\share_2\PIPPO\file.mkv
Format                           : Matroska
File size                        : 1.88 GiB
Duration                         : 42mn 11s
Overall bit rate                 : 6 386 Kbps
Writing application              : HandBrake 4472svn
Writing library                  : libmkv 0.6.5

Video
ID                               : 1
Format                           : AVC
Format/Info                      : Advanced Video Codec
Format profile                   : Main@L3.1
Format settings, CABAC           : Yes
Format settings, ReFrames        : 4 frames
Codec ID                         : V_MPEG4/ISO/AVC
Duration                         : 42mn 11s
Bit rate                         : 6 000 Kbps
Width                            : 1 280 pixels
Height                           : 720 pixels
Display aspect ratio             : 16:9
Frame rate mode                  : Variable
Frame rate                       : 25.000 fps
Color space                      : YUV
Chroma subsampling               : 4:2:0
Bit depth                        : 8 bits
Scan type                        : Progressive
Bits/(Pixel*Frame)               : 0.260
Stream size                      : 1.73 GiB (92%)
Writing library                  : x264 core 120
Encoding settings                : cabac=1 / ref=3 / deblock=1:-1:-1 / analyse=0x1:0x111 / me=hex / subme=2 / psy=1 / psy_rd=1.00:0.15 / mixed_ref=1 / me_range=16 / chroma_me=1 / trellis=0 / 8x8dct=0 / cqm=0 / deadzone=21,11 / fast_pskip=1 / chroma_qp_offset=0 / threads=6 / sliced_threads=0 / nr=0 / decimate=1 / interlaced=0 / bluray_compat=0 / constrained_intra=0 / bframes=3 / b_pyramid=2 / b_adapt=1 / b_bias=0 / direct=1 / weightb=1 / open_gop=0 / weightp=2 / keyint=250 / keyint_min=25 / scenecut=40 / intra_refresh=0 / rc_lookahead=10 / rc=2pass / mbtree=1 / bitrate=6000 / ratetol=1.0 / qcomp=0.60 / qpmin=3 / qpmax=69 / qpstep=4 / cplxblur=20.0 / qblur=0.5 / ip_ratio=1.40 / aq=1:1.00
Language                         : English
Color primaries                  : BT.709-5, BT.1361, IEC 61966-2-4, SMPTE RP177
Transfer characteristics         : BT.709-5, BT.1361
Matrix coefficients              : BT.709-5, BT.1361, IEC 61966-2-4 709, SMPTE RP177

Audio
ID                               : 2
Format                           : AC-3
Format/Info                      : Audio Coding 3
Mode extension                   : CM (complete main)
Codec ID                         : A_AC3
Duration                         : 42mn 11s
Bit rate mode                    : Constant
Bit rate                         : 384 Kbps
Channel(s)                       : 6 channels
Channel positions                : Front: L C R, Side: L R, LFE
Sampling rate                    : 48.0 KHz
Bit depth                        : 16 bits
Compression mode                 : Lossy
Stream size                      : 116 MiB (6%)
Language                         : Italian

 

sapreste darmi una mano??

 

grazie

Regular Advisor
Tullio
Posts: 71
Registered: ‎06-08-2011
0

Re: lettore si blocca ed impalla con file mkv

Hai provato a confrontare i dettagli di uno degli MKV che funzionano correttamente con i dettagli di questo che invece non funziona?...in questo modo dovresti trovare la causa del problema.

Forums | Ideas | News and Announcements | Register | Sign in | Help | Forum Guidelines
Copyright © 2001 - 2014 Western Digital Technologies, Inc. All rights reserved. | Trademarks | Privacy | Community Terms of Service | Site Terms of Use | Copyright | Contact WD